Search the Community: Showing results for tags 'rajinikanth'.



More search options

  • Search By Tags

    Type tags separated by commas.
  • Search By Author

Content Type


Blogs

  • Tamilmv

Calendars

  • Community Calendar

Forums

  • Main Pages
    • Tamil
    • Telugu
    • Hindi
    • Malayalam
  • General
    • Introduction
    • Tutorials
    • Site Rules / Announcements
    • Complaints / Bugs
    • Donation's
    • Suggestions / FeedBack
    • Other
  • Tamil Language
    • PreDVD / DVDScr / CAM / TC
    • WEB-HD / iTunes-HD / BluRay
    • HD-Rips / DVD-Rips / BR-Rips
    • Watch Tamil Movies Online
    • DVD9 / DVD5
    • HDTV / SDTV / HDTV-Rips
    • Tamil Dubbed Movies
    • MP3 Songs
    • Video Songs
    • Cinema News / Reviews
    • TV SHOWS / General Videos
  • Telugu Language
    • PreDVD / DVDScr / CAM / TC
    • WEB-HD / iTunes-HD / BluRay
    • HD-Rips / DVD-Rips / BR-Rips
    • Watch Telugu Movies Online
    • DVD9 / DVD5
    • HDTV / SDTV / HDTV-Rips
    • Telugu Dubbed Movies
    • MP3 Songs
    • Video Songs
    • Cinema News / Reviews
    • TV SHOWS / General Videos
  • Hindi Language
    • PreDVD / DVDScr / CAM / TC
    • WEB-HD / iTunes-HD / BluRay
    • HD-Rips / DVD-Rips / BR-Rips
    • Watch Hindi Movies Online
    • DVD9 / DVD5
    • HDTV / SDTV / HDTV-Rips
    • Hindi Dubbed Movies
    • MP3 Songs
    • Video Songs
    • Cinema News / Reviews
    • TV SHOWS / General Videos
  • Malayalam Language
    • PreDVD / DVDScr / CAM / TC
    • WEB-HD / iTunes-HD / BluRay
    • HD-Rips / DVD-Rips / BR-Rips
    • Watch Malayalam Movies Online
    • DVD9 / DVD5
    • HDTV / SDTV / HDTV-Rips
    • MP3 Songs
    • Video Songs
    • Malayalam (Dubbed / Subtitled) Movies
    • Cinema News / Reviews
    • TV SHOWS / General Videos
  • Kannada Language
    • PreDVD / DVDScr / CAM / TC
    • WEB-HD / iTunes-HD / BluRay
    • HD-Rips / DVD-Rips / BR-Rips
    • DVD9 / DVD5
    • HDTV / SDTV / HDTV-Rips
    • Kannada Dubbed Movies
    • MP3 Songs
    • Video Songs
    • Cinema News / Reviews
    • TV SHOWS / General Videos
  • English Language
    • PreDVD / DVDScr / CAM / TC
    • WEB-HD / iTunes-HD / BluRay
    • HD-Rips / DVD-Rips / BR-Rips
    • MP3 Songs
    • Video Songs
    • Cinema News / Reviews
    • TV SHOWS / General Videos
  • Members Lounge
    • Post & Share Here
    • Request Section
    • Softwares / Games
    • Multimedia - GFX / VFX / SFX Animation
    • E-Book / Education Tutorials
  • WWE Shows
    • RAW
    • SmackDown LIVE
    • PPV - Pay Per View Events
  • Live TV
    • Tamil
    • Telugu
    • Hindi
    • Malayalam
    • Kannada
    • Sports

Category Manager

  • Tamil Movies
    • TC/CAM/DVDSCR
    • DVDRip / HDrip
    • HD Movies
  • Video Songs
  • Telugu Movies
    • TC/CAM/DVDSCR Copy
    • DVDRip / HDrip Copy
    • HD Movies Copy
  • Cinema News
  • Trailers

Found 13 results

  1. Petta (2019) - Telugu - All Video Songs - 1080P - Original - WEB-HD - AVC - AAC Click On Image to View Original Size Petta (2019) - Telugu - All Video Songs - 1080P - Original - WEB-HD - AVC - AAC - Links "Where Quality Speaks" 🙏 Thankyou For Visiting 🙏
  2. S u p e r ★ R a j i n i Enthiran (2010) - Kadhal Anakkul - Bluray - BD50 - 1080P - DTS-HDMA - Untouched - 1GB [email protected]
  3. (www.Tamilmv.cz) Petta - Marana Mass 720p.mp4 - (70MB) (www.Tamilmv.cz) Petta - Marana Mass 1080p.mp4 - (100MB) 🙏 Thank You For Viewers 🙏
  4. !~ PETTA - MOVIE HD/ UHD STILLS ~! GIVE ME PRO IN Flickr :https://www.flickr.com/photos/iamakashvj/ To Upload More Stills.. 1K Photos For Free Accounts. So Make Me PRO THANK YOU
  5. DO YOU LIKE AARON KHAN POSTS ? BALLEILLAKKA NOTE: THIS IS 1.7 GB FILE DIVIDED IN TO TWO PARTS LINK PART 01: http://linkshrink.net/7dfMQD PART 02: http://linkshrink.net/7CnoYs
  6. Manithan (1987)-All Video Songs-1080P-ReMastered-True-HD-AVC-AAC-Untouched Manithan - Kaalai_Kaalai - 1080P.mp4 - 131.0 MB Manithan - Manithan - 1080P.mp4 - 54.0 MB Manithan - Muthu_Muthu_Pennai - 1080P.mp4 - 111.1 MB Manithan - Vanaththai_Parthen(sad) - 1080P.mp4 - 99.4 MB Manithan - Vanaththai_Parthen - 1080P.mp4 - 117.2 MB Manithan - Nadakkirathu - 1080P.mp4 - 132.3 MB 👍 Originally Posted on TamilMV 👍 - @dls -
  7. Chandramukhi (2005)-All Video Songs-Original-WEB-HD-1080P-MP4-AAC Chandramukhi - Annanoda Pattu - 1080P.mp4 - 171MB Chandramukhi - KokkuParaPara - 1080P.mp4 - 153MB Chandramukhi - Athinthom - 1080P.MP4 - 134MB Chandramukhi - RaaRaa - 1080P.MP4 - 138MB Chandramukhi - KonjamNeram - 1080P.mp4 - 104MB Chandramukhi - DevudaDevuda - 1080P.mp4 - 154MB - @dls -
  8. Enthiran (2010) - Original BGM Score - [Digital] - (320KBPS & 128KBPS) + iTunes No WM' s | No URL Tag' sUNTOUCHED Crystal Clear Audio' s Album Info Movie : Enthiran Year : 2010 Music : A.R Rehaman Encoder : DLS Source : DIGITAL Complete Album with Original HD Cover 128 Kbps (36MB) | iTunes (42MB) | 320 Kbps (65MB) -:: Originally posted on TamilMV only ::- - @dls -
  9. General Format : MPEG-4 Format profile : Base Media Codec ID : isom (isom/iso2/avc1/mp41) File size : 37.2 MiB Duration : 1 min 29 s Overall bit rate : 3 484 kb/s Writing application : Lavf56.25.101 Video #1 ID : 1 Format : AVC Format/Info : Advanced Video Codec Format profile : [email protected] Format settings : CABAC / 3 Ref Frames Format settings, CABAC : Yes Format settings, ReFrames : 3 frames Codec ID : avc1 Codec ID/Info : Advanced Video Coding Duration : 1 min 29 s Bit rate : 3 354 kb/s Width : 1 920 pixels Height : 1 080 pixels Display aspect ratio : 16:9 Frame rate mode : Constant Frame rate : 24.000 FPS Color space : YUV Chroma subsampling : 4:2:0 Bit depth : 8 bits Scan type : Progressive Bits/(Pixel*Frame) : 0.067 Stream size : 35.8 MiB (96%) Color range : Limited Color primaries : BT.709 Transfer characteristics : BT.709 Matrix coefficients : BT.709 Audio #2 ID : 2 Format : AAC Format/Info : Advanced Audio Codec Format profile : LC Codec ID : mp4a-40-2 Duration : 1 min 29 s Bit rate mode : Constant Bit rate : 126 kb/s Channel(s) : 2 channels Channel positions : Front: L R Sampling rate : 44.1 kHz Frame rate : 43.066 FPS (1024 SPF) Compression mode : Lossy Stream size : 1.34 MiB (4%) Default : Yes Alternate group : 1 www.TamilMV.vet - 2.0 - Official Teaser [Tamil] 1080p | Rajinikanth | Akshay Kumar | A R Rahman | Shankar www.TamilMV.vet - 2.0 - Official Teaser [Telugu] 1080p | Rajinikanth | Akshay Kumar | A R Rahman | Shankar